Enter For FREE to Win $25.00 Paypal Cash Monthly Giveaway @ YourContests!
 Welcome Guest! Please Login. #bt-chat on irc.efnet.net 
BT-Chat.comv3.0?
Home  |  Browse  |  Login  |  Register  |  Search  |  RSS | Atom  |  IRC  |  FAQ  |  Stats
 Groups:  All | BT-Chat | EZTV | MVG | MXMG | Public | Verified | VTV
Torrent Details
Name: Madagascar 3 2012 CAM READNFO XviD
Added: 2012-06-10 21:14:08 Advertisement
Group: Verified
Category: Movies
Seeds: 0
Leeches: 0
Finished: 48445
Uploader: memory100
IMDB:
Downloaded: 0
Viewed: 0
Announce URL: http://inferno.demonoid.me:3414/announce
Hash: ed37aaab202d9fc3b2351720be450d10bd22c00e
File Info:

Madagascar.3.Europe's.Most.Wanted.2012.CAM.READNFO.XVID-26K

This is a Multifile Torrent:
1: File Name: 1.png. File Size: 504.92 KB
2: File Name: 2.png. File Size: 328.61 KB
3: File Name: 26k nfo.nfo. File Size: 3.96 KB
4: File Name: 3.png. File Size: 337.95 KB
5: File Name: 4.png. File Size: 492.19 KB
6: File Name: HDSceneRG.txt. File Size: 0.11 KB
7: File Name: Madagascar.3.Europe's.Most.Wanted.2012.CAM.READNFO.XVID-26K.avi. File Size: 1.37 GB
8: File Name: Madagascar.3.Europe's.Most.Wanted.2012.CAM.READNFO.XVID-26K.jpg. File Size: 192.43 KB
9: File Name: Torrent downloaded from Demonoid.me.txt. File Size: 0.04 KB
10: File Name: Torrent downloaded from rarbg.com.txt.txt. File Size: 0.00 KB
11: File Name: YouTube Latest Releases And Archive.txt. File Size: 0.08 KB
12: File Name: jetstreamnews.com.txt. File Size: 0.36 KB
13: File Name: sceneunderground.org.txt. File Size: 0.08 KB
Combined File Size: 1.37 GB

Piece Size: 4.00 MB
Details: [IMG]http://img543.imageshack.us/img543/2852/madvs.jpg[/IMG] [code] Madagascar.3.Europe's.Most.Wanted.2012.CAM.READNFO.XVID-26K http://www.imdb.com/title/tt1277953/ Plot: Alex, Marty, Gloria and Melman are still fighting to get home to their beloved Big Apple. Their journey takes them through Europe where they find the perfect cover: a traveling circus, which they reinvent - Madagascar style. Sources - VIDEO: Madagaskar.3.2012.D.TS ....Thanks :P AUDIO: A Friend ...Thanks :P Format : AVI Format/Info : Audio Video Interleave File size : 1.37 GiB Duration : 1h 21mn Overall bit rate : 2 417 Kbps Writing application : VirtualDubMod 1.5.10.3 | www.virtualdub-fr.org || (build 2550/release) Writing library : VirtualDub build 32839/release Video ID : 0 Format : MPEG-4 Visual Format profile : Advanced Simple@L5 Format settings, BVOP : 2 Format settings, QPel : No Format settings, GMC : No warppoints Format settings, Matrix : Default (H.263) Muxing mode : Packed bitstream Codec ID : XVID Codec ID/Hint : XviD Duration : 1h 21mn Bit rate : 2 279 Kbps Width : 720 pixels Height : 400 pixels Display aspect ratio : 16:9 Frame rate : 25.000 fps Color space : YUV Chroma subsampling : 4:2:0 Bit depth : 8 bits Scan type : Progressive Compression mode : Lossy Bits/(Pixel*Frame) : 0.317 Stream size : 1.29 GiB (94%) Writing library : XviD 1.2.1 (UTC 2008-12-04) Audio ID : 1 Format : MPEG Audio Format version : Version 1 Format profile : Layer 3 Mode : Joint stereo Mode extension : MS Stereo Codec ID : 55 Codec ID/Hint : MP3 Duration : 1h 21mn Bit rate mode : Constant Bit rate : 128 Kbps Channel(s) : 2 channels Sampling rate : 44.1 KHz Compression mode : Lossy Stream size : 74.3 MiB (5%) Alignment : Split accross interleaves Interleave, duration : 40 ms (1.00 video frame) Writing library : LAME3.98r Notes - K 1st for the reason for READNFO... vid is missign over 6 minutes total.. 3 minutes in 2 dif spots and then a few spots of 5 sec each..... Source was nice jsut had a lil coloring issue and sum noise so denoised then fixed coloring best we could then just synced up the nice cam audio we had and Presto we have a very nice 1st CAM for ya'll.. enjoy New Source soon ;) Enjoy!! [/code] Screenshots: [IMG]http://i.imgur.com/AIsCd.png[/IMG] [IMG]http://i.imgur.com/x33Hb.jpg[/IMG] IMG]http://img855.imageshack.us/img855/8548/53309357.png[/IMG] [IMG]http://img855.imageshack.us/img855/1443/99918104.png[/IMG] [IMG]http://img402.imageshack.us/img402/6660/87264830.png[/IMG Greetz: Xtreme Encode|FYA|ILLUMANTI|CM8|RX|VISION|HDSCENE|xTriLL|DTRG|CRYS|REMIXHD|BIDA|RX|REFILL|INSPiRAL|SIC| |HOPE|Anonymous|GooN|NOIR|Blackjesus|Gabroo Punjab Deh| To all the people who have helped me you know who you are Anything to offer email us @: 26k@hushmail.me
Fakeskanr: FS
Download Direct:

High Speed Download: “Madagascar 3 2012 CAM READNFO XviD”


Download
download
Comments
**Currently No Comments**
Add Comment

Categories
Sponsored Site
Affiliates
Home | Search | Stats | Contact Us
Valid XHTML 1.1 Valid CSS! [Valid RSS] [Valid Atom 1.0]
coinzplz 18Ed8oh2aCjcCsweSk1pd77D4GJSxbHMu5